请选择 进入手机版 | 继续访问电脑版
正在上传图片(0/1)

御二MOV不能编辑

 0
手机看帖 11 416
御二专业版拍摄的MOV视频不能导入非编PRcc2018  Resolve15也不行
评论
上传
你需要登录之后才能回帖    登录 | 注册
DDDJJJ  Ronin S认证用户 2018-12-7 2#
你录制的编码是H.265吧
楼主  Inspire 1 V2.0认证用户 2018-12-7 3#
DDDJJJ12-7 18:00
你录制的编码是H.265吧
Format                         : MPEG-4
Format profile                 : QuickTime
Codec ID                       : qt   0000.02 (qt  )
File size                      : 155 MiB
Duration                       : 14 s 198 ms
Overall bit rate               : 91.4 Mb/s
Encoded date                   : UTC 2018-10-26 16:19:12
Tagged date                    : UTC 2018-10-26 16:19:12
Writing application            : Lavf56.15.102

Video
ID                             : 1
Format                         : HEVC
Format/Info                    : High Efficiency Video Coding
Format profile                 : Main@L5@Main
Codec ID                       : hvc1
Codec ID/Info                  : High Efficiency Video Coding
Duration                       : 14 s 198 ms
Bit rate                       : 91.4 Mb/s
Width                          : 2 688 pixels
Height                         : 1 512 pixels
Display aspect ratio           : 16:9
Frame rate mode                : Constant
Frame rate                     : 59.940 (60000/1001) FPS
Original frame rate            : 59.000 FPS
Color space                    : YUV
Chroma subsampling             : 4:2:0
Bit depth                      : 8 bits
Bits/(Pixel*Frame)             : 0.375
Stream size                    : 155 MiB (100%)
Language                       : English
Encoded date                   : UTC 2018-10-26 16:19:12
Tagged date                    : UTC 2018-10-26 16:19:12
Codec configuration box        : hvcC
楼主  Inspire 1 V2.0认证用户 2018-12-7 4#
DDDJJJ12-7 18:00
你录制的编码是H.265吧
不行
小乐航拍   2018-12-7 5#
我不信,我都可以!
Black Hawker  Mavic Pro认证用户 2018-12-7 6#
Format                         : HEVC
Format/Info                    : High Efficiency Video Coding
这就是H.265!?
夏里   2018-12-8 7#
我的也不能编辑。我录的是H265。楼主要是解决了说一下。
星汉西流夜未央  Mavic 2 Pro认证用户 2018-12-10 8#
这个我已经解决 因为pr没完全破解 所以没有h265的编码 要完全破解才能有h265的编码
DDDJJJ  Ronin S认证用户 2018-12-15 9#
早上的太阳Mavic 2 Pro12-7 18:25
Format                         : MPEG-4
Format profile                 : QuickTime
Codec ID                       : qt   0000.02 (qt  )
File size                      : 155 MiB
Duration                       : 14 s 198 ms
Overall bit rate               : 91.4 Mb/s
Encoded date                   : UTC 2018-10-26 16:19:12
Tagged date                    : UTC 2018-10-26 16:19:12
Writing application            : Lavf56.15.102

Video
ID                             : 1
Format                         : HEVC
Format/Info                    : High Efficiency Video Coding
Format profile                 : Main@L5@Main
Codec ID                       : hvc1
Codec ID/Info                  : High Efficiency Video Coding
Duration                       : 14 s 198 ms
Bit rate                       : 91.4 Mb/s
Width                          : 2 688 pixels
Height                         : 1 512 pixels
Display aspect ratio           : 16:9
Frame rate mode                : Constant
Frame rate                     : 59.940 (60000/1001) FPS
Original frame rate            : 59.000 FPS
Color space                    : YUV
Chroma subsampling             : 4:2:0
Bit depth                      : 8 bits
Bits/(Pixel*Frame)             : 0.375
Stream size                    : 155 MiB (100%)
Language                       : English
Encoded date                   : UTC 2018-10-26 16:19:12
Tagged date                    : UTC 2018-10-26 16:19:12
Codec configuration box        : hvcC
是你的电脑软件解码器不支持的原因,可以尝试把后缀名mov修改为mp4,然后再拖入pr中,应该可以解决
楼主  Inspire 1 V2.0认证用户 2018-12-26 10#
DDDJJJ12-15 10:27
是你的电脑软件解码器不支持的原因,可以尝试把后缀名mov修改为mp4,然后再拖入pr中,应该可以解决
我试试
楼主  Inspire 1 V2.0认证用户 2018-12-26 11#
DDDJJJ12-15 10:27
是你的电脑软件解码器不支持的原因,可以尝试把后缀名mov修改为mp4,然后再拖入pr中,应该可以解决
简单有效,谢谢
huangyuefeng40@  Mavic 2 Pro认证用户 1-20 22:46 12#
DDDJJJ2018-12-15 10:27
是你的电脑软件解码器不支持的原因,可以尝试把后缀名mov修改为mp4,然后再拖入pr中,应该可以解决
4k编码是H.265 mov 后缀改成mp4可以用pr打开吗
已累计飞行99089米
认证设备
取消 点赞 评论
分享至:
回复:
上传
取消 评论
快速回复 返回顶部 返回列表